The Ellen DeGeneres Show S15E179

Posted By: Tavaz
720p (HD) / HDTV IMDb
The Ellen DeGeneres Show S15E179

The Ellen DeGeneres Show S15E179
HDTV | MKV | 1280x718 | English | H264 @ 3940 kbps | AC-3 @ 384 kbps | 41 min 29 s | 1.25 GiB
Subtitles: English
Genre: Comedy

The Ellen DeGeneres Show, often shortened to Ellen, is an American television talk show hosted by comedian/actress Ellen DeGeneres.

adba53c092ca41dc8817aa664e9d8e19.mkv (1.3 GB)



General
Unique ID : 249511631026042421620725536358529115038 (0xBBB63131D47ACBA03ECA620F9712239E)
Complete name : ./adba53c092ca41dc8817aa664e9d8e19.mkv
Format : Matroska
Format version : Version 4 / Version 2
File size : 1.25 GiB
Duration : 41 min 29 s
Overall bit rate : 4 329 kb/s
Encoded date : UTC 2018-06-25 00:42:04
Writing application : mkvmerge v22.0.0 ('At The End Of The World') 64-bit
Writing library : libebml v1.3.5 + libmatroska v1.4.8 / Lavf58.13.100

Video
ID : 1
Format : AVC
Format/Info : Advanced Video Codec
Format profile : High@L4.1
Format settings : CABAC / 9 Ref Frames
Format settings, CABAC : Yes
Format settings, RefFrames : 9 frames
Codec ID : V_MPEG4/ISO/AVC
Duration : 41 min 29 s
Bit rate : 3 941 kb/s
Width : 1 280 pixels
Height : 718 pixels
Display aspect ratio : 16:9
Original display aspect ratio : 16:9
Frame rate mode : Constant
Frame rate : 59.940 (60000/1001) FPS
Color space : YUV
Chroma subsampling : 4:2:0
Bit depth : 8 bits
Scan type : Progressive
Bits/(Pixel*Frame) : 0.072
Stream size : 1.14 GiB (91%)
Writing library : x264 core 155 r2901 7d0ff22
Encoding settings : cabac=1 / ref=9 / deblock=1:-3:-3 / analyse=0x3:0x133 / me=umh / subme=10 / psy=1 / psy_rd=1.00:0.00 / mixed_ref=1 / me_range=36 / chroma_me=1 / trellis=2 / 8x8dct=1 / cqm=0 / deadzone=21,11 / fast_pskip=0 / chroma_qp_offset=-2 / threads=6 / lookahead_threads=1 / sliced_threads=0 / nr=0 / decimate=1 / interlaced=0 / bluray_compat=0 / constrained_intra=0 / bframes=8 / b_pyramid=2 / b_adapt=2 / b_bias=0 / direct=3 / weightb=1 / open_gop=0 / weightp=2 / keyint=250 / keyint_min=25 / scenecut=40 / intra_refresh=0 / rc_lookahead=60 / rc=crf / mbtree=1 / crf=18.0 / qcomp=0.60 / qpmin=0 / qpmax=69 / qpstep=4 / ip_ratio=1.40 / aq=1:1.00
Default : Yes
Forced : No

Audio
ID : 2
Format : AC-3
Format/Info : Audio Coding 3
Format settings, Endianness : Big
Codec ID : A_AC3
Duration : 41 min 29 s
Bit rate mode : Constant
Bit rate : 384 kb/s
Channel(s) : 6 channels
Channel positions : Front: L C R, Side: L R, LFE
Sampling rate : 48.0 kHz
Frame rate : 31.250 FPS (1536 SPF)
Bit depth : 16 bits
Compression mode : Lossy
Delay relative to video : 19 ms
Stream size : 114 MiB (9%)
Language : English
Service kind : Complete Main
Default : Yes
Forced : No

Text
ID : 3
Format : UTF-8
Codec ID : S_TEXT/UTF8
Codec ID/Info : UTF-8 Plain Text
Duration : 40 min 45 s
Bit rate : 273 b/s
Count of elements : 1130
Stream size : 81.6 KiB (0%)
Language : English
Default : No
Forced : No





The Ellen DeGeneres Show S15E179


The Ellen DeGeneres Show S15E179


The Ellen DeGeneres Show S15E179


The Ellen DeGeneres Show S15E179


The Ellen DeGeneres Show S15E179

All episodes

SitemapTIMMY XU | editar pdf | Olivia de Havilland