The Ellen DeGeneres Show S15E178

Posted By: Tavaz
720p (HD) / HDTV IMDb
The Ellen DeGeneres Show S15E178

The Ellen DeGeneres Show S15E178
HDTV | MKV | 1280x718 | H264 @ 3624 kbps | AC-3 @ 384 kbps | 41 min 29 s | 1.19 GiB
Genre: Comedy

The Ellen DeGeneres Show, often shortened to Ellen, is an American television talk show hosted by comedian/actress Ellen DeGeneres.

b17aa9f1d727432f9d91ce7d651bef6c.mkv (1.2 GB)



General
Unique ID : 263331626262928980696736153687735103857 (0xC61BD39112D28B4DE8DE4BB3D5EB7171)
Complete name : ./b17aa9f1d727432f9d91ce7d651bef6c.mkv
Format : Matroska
Format version : Version 4 / Version 2
File size : 1.19 GiB
Duration : 41 min 29 s
Overall bit rate : 4 089 kb/s
Writing application : Lavf57.82.100
Writing library : Lavf57.82.100
ErrorDetectionType : Per level 1

Video
ID : 1
Format : AVC
Format/Info : Advanced Video Codec
Format profile : High@L4.1
Format settings : CABAC / 9 Ref Frames
Format settings, CABAC : Yes
Format settings, RefFrames : 9 frames
Codec ID : V_MPEG4/ISO/AVC
Duration : 41 min 29 s
Bit rate : 3 624 kb/s
Width : 1 280 pixels
Height : 718 pixels
Display aspect ratio : 16:9
Original display aspect ratio : 16:9
Frame rate mode : Constant
Frame rate : 59.940 FPS
Color space : YUV
Chroma subsampling : 4:2:0
Bit depth : 8 bits
Scan type : Progressive
Bits/(Pixel*Frame) : 0.066
Stream size : 1.05 GiB (89%)
Writing library : x264 core 155 r2901 7d0ff22
Encoding settings : cabac=1 / ref=9 / deblock=1:-3:-3 / analyse=0x3:0x133 / me=umh / subme=10 / psy=1 / psy_rd=1.00:0.00 / mixed_ref=1 / me_range=36 / chroma_me=1 / trellis=2 / 8x8dct=1 / cqm=0 / deadzone=21,11 / fast_pskip=0 / chroma_qp_offset=-2 / threads=6 / lookahead_threads=1 / sliced_threads=0 / nr=0 / decimate=1 / interlaced=0 / bluray_compat=0 / constrained_intra=0 / bframes=8 / b_pyramid=2 / b_adapt=2 / b_bias=0 / direct=3 / weightb=1 / open_gop=0 / weightp=2 / keyint=250 / keyint_min=25 / scenecut=40 / intra_refresh=0 / rc_lookahead=60 / rc=crf / mbtree=1 / crf=18.0 / qcomp=0.60 / qpmin=0 / qpmax=69 / qpstep=4 / ip_ratio=1.40 / aq=1:1.00
Default : Yes
Forced : No

Audio
ID : 2
Format : AC-3
Format/Info : Audio Coding 3
Format settings, Endianness : Big
Codec ID : A_AC3
Duration : 41 min 29 s
Bit rate mode : Constant
Bit rate : 384 kb/s
Channel(s) : 6 channels
Channel positions : Front: L C R, Side: L R, LFE
Sampling rate : 48.0 kHz
Frame rate : 31.250 FPS (1536 SPF)
Bit depth : 16 bits
Compression mode : Lossy
Delay relative to video : 24 ms
Stream size : 114 MiB (9%)
Service kind : Complete Main
Default : Yes
Forced : No

Text
ID : 3
Format : ASS
Codec ID : S_TEXT/ASS
Codec ID/Info : Advanced Sub Station Alpha
Duration : 41 min 23 s
Compression mode : Lossless
Writing library : Lavc57.106.101 ssa
Default : No
Forced : No





The Ellen DeGeneres Show S15E178


The Ellen DeGeneres Show S15E178


The Ellen DeGeneres Show S15E178


The Ellen DeGeneres Show S15E178


The Ellen DeGeneres Show S15E178

All episodes

SitemapNächste Seite | LinkedIn Learning - L’essentiel de Windows Server 2016vues: 1513 Programmation et developpement | Anatomie 2 Dvdrip