The Daily Show with Trevor Noah 2018-06-26

Posted By: Tavaz
1080p (FullHD) / WEB-DL IMDb
The Daily Show with Trevor Noah 2018-06-26

The Daily Show with Trevor Noah 2018-06-26
WEB-DL | MKV | 1920x1080 | English | H264 @ 3758 kbps | AAC @ 128 kbps | 38 min 4 s | 1.03 GiB
Subtitles: English
Genre: Comedy

The Daily Show is an American late night satirical television program airing each Monday through Thursday on Comedy Central and, in Canada, The Comedy Network. Describing itself as a fake news program, The Daily Show draws its comedy and satire from recent news stories, political figures, media organizations, and often, aspects of the show itself.

1b0956da358741aa84451be19fd5c25c.mkv (1.0 GB)



General
Unique ID : 216088471416990940939445640890246707676 (0xA2912032B7A1FA8815EB90651DD739DC)
Complete name : ./1b0956da358741aa84451be19fd5c25c.mkv
Format : Matroska
Format version : Version 4 / Version 2
File size : 1.03 GiB
Duration : 38 min 4 s
Overall bit rate : 3 891 kb/s
Encoded date : UTC 2018-06-27 13:09:49
Writing application : mkvmerge v20.0.0 ('I Am The Sun') 32-bit
Writing library : libebml v1.3.5 + libmatroska v1.4.8

Video
ID : 1
Format : AVC
Format/Info : Advanced Video Codec
Format profile : High@L4
Format settings : CABAC / 4 Ref Frames
Format settings, CABAC : Yes
Format settings, RefFrames : 4 frames
Codec ID : V_MPEG4/ISO/AVC
Duration : 38 min 4 s
Bit rate : 3 759 kb/s
Width : 1 920 pixels
Height : 1 080 pixels
Display aspect ratio : 16:9
Frame rate mode : Variable
Frame rate : 29.814 FPS
Original frame rate : 29.970 (30000/1001) FPS
Color space : YUV
Chroma subsampling : 4:2:0
Bit depth : 8 bits
Scan type : Progressive
Bits/(Pixel*Frame) : 0.061
Stream size : 1 024 MiB (97%)
Writing library : x264 core 146
Encoding settings : cabac=1 / ref=4 / deblock=1:0:0 / analyse=0x3:0x113 / me=umh / subme=10 / psy=1 / psy_rd=1.00:0.15 / mixed_ref=1 / me_range=32 / chroma_me=1 / trellis=2 / 8x8dct=1 / cqm=0 / deadzone=21,11 / fast_pskip=1 / chroma_qp_offset=-3 / threads=32 / lookahead_threads=2 / sliced_threads=0 / nr=0 / decimate=0 / interlaced=0 / paff=0 / bluray_compat=0 / constrained_intra=0 / bframes=3 / b_pyramid=0 / b_adapt=2 / b_bias=0 / direct=3 / weightb=1 / open_gop=0 / weightp=2 / keyint=60 / keyint_min=23 / scenecut=0 / intra_refresh=0 / rc_lookahead=60 / rc=crf / mbtree=1 / crf=19.0 / qcomp=0.60 / qpmin=10 / qpmax=51 / qpstep=4 / vbv_maxrate=5000 / vbv_bufsize=10000 / crf_max=0.0 / nal_hrd=none / filler=0 / ip_ratio=1.40 / aq=1:0.80
Language : English
Default : Yes
Forced : No

Audio
ID : 2
Format : AAC
Format/Info : Advanced Audio Codec
Format profile : LC
Codec ID : A_AAC-2
Duration : 38 min 4 s
Bit rate : 128 kb/s
Channel(s) : 2 channels
Channel positions : Front: L R
Sampling rate : 48.0 kHz
Frame rate : 46.875 FPS (1024 SPF)
Compression mode : Lossy
Delay relative to video : -33 ms
Stream size : 34.9 MiB (3%)
Language : English
Default : Yes
Forced : No

Text
ID : 3
Format : UTF-8
Codec ID : S_TEXT/UTF8
Codec ID/Info : UTF-8 Plain Text
Duration : 37 min 57 s
Bit rate : 131 b/s
Count of elements : 948
Stream size : 36.5 KiB (0%)
Language : English
Default : No
Forced : No

Menu
00:00:00.000 : en:The Daily Show with Trevor Noah 23122 Act 1
00:09:16.589 : en:The Daily Show with Trevor Noah 23122 Act 2
00:13:53.131 : en:The Daily Show with Trevor Noah 23122 Act 3
00:37:32.348 : en:The Daily Show with Trevor Noah 23122 Act 4





The Daily Show with Trevor Noah 2018-06-26


The Daily Show with Trevor Noah 2018-06-26


The Daily Show with Trevor Noah 2018-06-26


The Daily Show with Trevor Noah 2018-06-26


The Daily Show with Trevor Noah 2018-06-26
SitemapCatastrophe (2015) | Mugen no Juunin | Другое